Yoshine Yuria - The True Appearance Of A Married Woman Who Is Happy But Boring As A Married Couple Is ... A Perverted Huge Breasts Guy Who Is Made To Bloom Masochistically By Being Soaked In Sex And Obey Any Command ● Yuria Yoshine Yuria [GVH-4 ]

The True Appearance Of A Married Woman Who Is Happy But Boring As A Married Couple Is ... A Perverted Huge Breasts Guy Who Is Made To Bloom Masochistically By Being Soaked In Sex And Obey Any Command ● Yuria Yoshine Yuria
幸せだけど退屈な夫婦生活を送っている人妻の本当の姿は…セックス漬けでマゾ開花させられどんな命令にでも従ってしまう変態爆乳奴● ゆりあ 吉根ゆりあ
Cтрана: Япония Жанр: Solowork, Big Tits, Nasty, Hardcore, Submissive Woman Продолжительность: 02:14:48
Цензура: Есть во всех файлах Язык: Японский Студийный код фильма: GVH-438 Студия: Glory Quest Европейские девушки в фильме: Нет В ролях: Yoshine Yuria Тип HD Видео: 1080p Качество видео: HDRip Формат видео: MP4 Видео: AVC, 1920 pixels x 1080 pixels, 29.960 FPS, 5 741 kb/s
Аудио
: AAC, 48.0 kHz stereo, 128 kb/s
"Screenlist and screenshots"



"MediaInfo"
General
Complete name : D:GVH-438.mp4
Format : MPEG-4
Format profile : Base Media
Codec ID : isom (isom/iso2/avc1/mp41)
File size : 5.53 GiB
Duration : 2 h 14 min
Overall bit rate : 5 879 kb/s
Writing application : Lavf59.16.100

Video
ID : 1
Format : AVC
Format/Info : Advanced Video Codec
Format profile : Main@L4
Format settings : CABAC / 3 Ref Frames
Format settings, CABAC : Yes
Format settings, Reference : 3 frames
Codec ID : avc1
Codec ID/Info : Advanced Video Coding
Duration : 2 h 14 min
Source duration : 2 h 14 min
Bit rate : 5 741 kb/s
Width : 1 920 pixels
Height : 1 080 pixels
Display aspect ratio : 16:9
Frame rate mode : Variable
Frame rate : 29.970 FPS
Minimum frame rate : 29.969 FPS
Maximum frame rate : 30.024 FPS
Color space : YUV
Chroma subsampling : 4:2:0
Bit depth : 8 bits
Scan type : Progressive
Bits/(Pixel*Frame) : 0.092
Stream size : 5.40 GiB (98%)
Source stream size : 5.40 GiB (98%)
Writing library : x264 core 164 r3081 19856cc
Encoding settings : cabac=1 / ref=3 / deblock=1:1:0 / analyse=0x1:0x131 / me=hex / subme=7 / psy=1 / psy_rd=0.50:0.00 / mixed_ref=1 / me_range=16 / chroma_me=1 / trellis=1 / 8x8dct=0 / cqm=0 / deadzone=21,11 / fast_pskip=0 / chroma_qp_offset=-2 / threads=8 / lookahead_threads=1 / sliced_threads=0 / nr=0 / decimate=1 / interlaced=0 / bluray_compat=0 / constrained_intra=0 / bframes=3 / b_pyramid=0 / b_adapt=1 / b_bias=0 / direct=1 / weightb=1 / open_gop=0 / weightp=2 / keyint=infinite / keyint_min=60 / scenecut=0 / intra_refresh=0 / rc_lookahead=40 / rc=abr / mbtree=1 / bitrate=5744 / ratetol=1.0 / qcomp=0.50 / qpmin=10 / qpmax=69 / qpstep=4 / vbv_maxrate=8041 / vbv_bufsize=8041 / nal_hrd=none / filler=0 / ip_ratio=1.41 / aq=2:1.00
Color range : Limited
Color primaries : BT.709
Transfer characteristics : BT.709
Matrix coefficients : BT.709
Codec configuration box : avcC

Audio
ID : 2
Format : AAC LC
Format/Info : Advanced Audio Codec Low Complexity
Codec ID : mp4a-40-2
Duration : 2 h 14 min
Source duration : 2 h 14 min
Bit rate mode : Constant
Bit rate : 128 kb/s
Channel(s) : 2 channels
Channel layout : L R
Sampling rate : 48.0 kHz
Frame rate : 46.875 FPS (1024 SPF)
Compression mode : Lossy
Stream size : 123 MiB (2%)
Source stream size : 123 MiB (2%)
Default : Yes
Alternate group : 1

Скриншот №1 для Yoshine Yuria - The True Appearance Of A Married Woman Who Is Happy But Boring As A Married Couple Is ... A Perverted Huge Breasts Guy Who Is Made To Bloom Masochistically By Being Soaked In Sex And Obey Any Command ● Yuria Yoshine Yuria [GVH-4 ] Скриншот №2 для Yoshine Yuria - The True Appearance Of A Married Woman Who Is Happy But Boring As A Married Couple Is ... A Perverted Huge Breasts Guy Who Is Made To Bloom Masochistically By Being Soaked In Sex And Obey Any Command ● Yuria Yoshine Yuria [GVH-4 ] Скриншот №3 для Yoshine Yuria - The True Appearance Of A Married Woman Who Is Happy But Boring As A Married Couple Is ... A Perverted Huge Breasts Guy Who Is Made To Bloom Masochistically By Being Soaked In Sex And Obey Any Command ● Yuria Yoshine Yuria [GVH-4 ] Скриншот №4 для Yoshine Yuria - The True Appearance Of A Married Woman Who Is Happy But Boring As A Married Couple Is ... A Perverted Huge Breasts Guy Who Is Made To Bloom Masochistically By Being Soaked In Sex And Obey Any Command ● Yuria Yoshine Yuria [GVH-4 ] Скриншот №5 для Yoshine Yuria - The True Appearance Of A Married Woman Who Is Happy But Boring As A Married Couple Is ... A Perverted Huge Breasts Guy Who Is Made To Bloom Masochistically By Being Soaked In Sex And Obey Any Command ● Yuria Yoshine Yuria [GVH-4 ]
  • Download torrent ( 5.53 GB )
  • Magnet link



Мы открыли новый порнотрекер Sexitorrent , 5pornotorrent , Pornospeed и Porevotorrent